0 BlacKkKlansman Big Bang Theory the big bang theory big bang theory español ddr lethal weapon Supernatural ıt 2017 blue bloods etrg Incredibles 2 Shameless "man ray" Castlevania s02e04 ita 2018 blindspot a discovery of witches s01e07 WWE The Good Doctor evo titans s01e03 alpha Alpha 2018 titans south park プロレス激活字シリー discovery of witches great british bake off s09e09 1080p YIFY dtone macgyver blindspot s04e03 Supergirl discovery of witches S01E07 Chilling Adventures of Sabrina Ncis venom ettv 9-1-1.S01 Castlevania s02e01 DTONE a discovery of witches maneskin game of thrones ethd Survivor 2018 movies formula 1 2160p star trek discovery The Walking Dead etmovies fgt The Flash the americans arrow doctor who porn empire High Castle s03e07 hawaii 2018 ita star trek discovery español mr robot en español It hindi supernatural s14e03 The Big Bang Theory s12e06 Young Sheldon S02E06 
Warning! Do not Download Without a VPN!
Your IP Address is .   Location is
Download and surf securely, stream unlimited and protect your personal data!
We strongly recommend using SpyOFF VPN!
Become Anonymous with SpyOFF
ETTV Recommended TV Shows
A.Discovery.Of.Witches.S01E07.HDTV.x264-GARBAGE[ettv] torrent
Ghost.Adventures.S16E13.Cape.Disappointment.iNTERNAL.720p.HDTV.x264-DHD[ettv] torrent
UFC Fight Night 138 Volkan vs Smith HDTV x264-Ebi [TJET] torrent
Kidding.S01E08.Philliam.720p.AMZN.WEB-DL.DDP5.1.H.264-NTb[ettv] torrent

ETTV Recommended Xvid
A-X-L.2018.HDRip.XviD.AC3-EVO[EtMovies] torrent
Nun.2017.HDRip.XviD.AC3-EVO torrent
Our.House.2018.BRRip.XViD-ETRG torrent
Charming.2018.BDRip.XviD.AC3-EVO torrent

ETTV Recommended HD
Down.a.Dark.Hall.2018.1080p.Bluray.x264.DTS-HDMA.5.1-DTOne torrent
Slender.Man.2018Multi.1080p.Bluray.x264.DTS-HDMA.5.1-DTOne torrent
Reprisal.2018.1080p.Bluray.x264.DTS-HDMA.5.1-DTOne torrent
Warning.Shot.2018.1080p.Bluray.x264.DTS-HDMA.5.1-DTOne torrent

ETTV Recommended UHD
Twilight.2008.Multi.UHD.2160p.Bluray.x265.HEVC.HDR.DD.5.1-DTOne torrent
Mamma.Mia.Here.We.Go.Again.2018.Multi.UHD.2160p.Bluray.x265.HDR.DDP.7.1-DTOne torrent
Only.The.Brave.2017.UHD.2160p.Bluray.x265.HDR.DD.5.1-DTOne torrent
The.Matrix.Reloaded.2003.Multi.UHD.2160p.Bluray.Remux.HEVC.HDR.Atmos.7.1-DTOne torrent

ETTV Recommended Cam
Goosebumps 2 Haunted Halloween 2018 HDTS.x264.AC3-ETRG torrent
Halloween 2018.HDCAM.XViD.AC3-ETRG torrent
Night School 2018 HDTS XViD AC3-ETRG torrent
King of Thieves 2018.HDTS.x264.AC3-ETRG torrent

ETTV Recommended Foreign
Redbad.2018.Multi.1080p.Bluray.x264.DTS.5.1-DTOne torrent
Baar.Baar.Dekho.2018.Complete.1080p.Ger.Bluray.DD.5.1-DTOne torrent
Hotel Transylvania 3 (2018) 720p BluRay x264 Dual Audio [Hindi DD5.1 - English DD2.0] - ESUBS ~ Exclusice By Ranvijay torrent
Saamy² (2018) [TAMIL - 1080p - WEB HDRip - x264 - DD 5.1 - ESub - 2GB] - MAZE torrent

Social


Download Torrent "24 (2001) Season 7 S07 (1080p BluRay x265 HEVC 10bit AAC 5.1 ImE) [QxR]"

IMDB Details
Description:

Genre:

Download Torrent (Magnet)
Download Torrent (File)
Seeds: 0
Leechers: 0
Completed:
Last Checked: 04-03-2018 02:06:32


Loading...
Details
Title:24 (2001) Season 7 S07 (1080p BluRay x265 HEVC 10bit AAC 5.1 ImE) [QxR]
Description:


Encode Screenshots (Click for full quality)







Media Information
General
Format                                   : Matroska
Format version                           : Version 4 / Version 2
File size                                : 590 MiB
Duration                                 : 46 min 21 s
Overall bit rate                         : 1 780 kb/s
Encoded date                             : UTC 2018-03-02 23:01:43
Writing application                      : mkvmerge v19.0.0 ('Brave Captain') 64-bit
Writing library                          : libebml v1.3.5 + libmatroska v1.4.8
Writing frontend                         : StaxRip v1.7.0.0

Video
ID                                       : 1
Format                                   : HEVC
Format/Info                              : High Efficiency Video Coding
Format profile                           : Main [email protected]@Main
Codec ID                                 : V_MPEGH/ISO/HEVC
Duration                                 : 46 min 21 s
Bit rate                                 : 1 483 kb/s
Width                                    : 1 920 pixels
Height                                   : 1 080 pixels
Display aspect ratio                     : 1.940
Original display aspect ratio            : 1.939
Frame rate mode                          : Constant
Frame rate                               : 23.976 (24000/1001) FPS
Color space                              : YUV
Chroma subsampling                       : 4:2:0
Bit depth                                : 10 bits
Bits/(Pixel*Frame)                       : 0.030
Stream size                              : 492 MiB (83%)
Title                                    : Encoded by: ImEverlasting
Writing library                          : x265 2.6+13-6b079854e56e:[Windows][MSVC 1912][64 bit] 10bit
Encoding settings                        : cpuid=1173503 / frame-threads=2 / numa-pools=4 / wpp / no-pmode / no-pme / no-psnr / no-ssim / log-level=2 / input-csp=1 / input-res=1920x1080 / interlace=0 / total-frames=66697 / level-idc=0 / high-tier=1 / uhd-bd=0 / ref=3 / no-allow-non-conformance / no-repeat-headers / annexb / no-aud / no-hrd / info / hash=0 / no-temporal-layers / open-gop / min-keyint=23 / keyint=250 / gop-lookahead=0 / bframes=8 / b-adapt=2 / b-pyramid / bframe-bias=0 / rc-lookahead=50 / lookahead-slices=6 / scenecut=40 / no-intra-refresh / ctu=64 / min-cu-size=8 / no-rect / no-amp / max-tu-size=32 / tu-inter-depth=1 / tu-intra-depth=1 / limit-tu=0 / rdoq-level=0 / dynamic-rd=0.00 / no-ssim-rd / signhide / no-tskip / nr-intra=0 / nr-inter=0 / no-constrained-intra / strong-intra-smoothing / max-merge=2 / limit-refs=3 / no-limit-modes / me=3 / subme=5 / merange=57 / temporal-mvp / weightp / no-weightb / no-analyze-src-pics / deblock=0:0 / sao / no-sao-non-deblock / rd=3 / no-early-skip / rskip / no-fast-intra / no-tskip-fast / no-cu-lossless / no-b-intra / no-splitrd-skip / rdpenalty=0 / psy-rd=2.00 / psy-rdoq=0.00 / no-rd-refine / analysis-reuse-mode=0 / no-lossless / cbqpoffs=0 / crqpoffs=0 / rc=crf / crf=24.0 / qcomp=0.60 / qpstep=4 / stats-write=0 / stats-read=0 / ipratio=1.40 / pbratio=1.30 / aq-mode=1 / aq-strength=1.00 / cutree / zone-count=0 / no-strict-cbr / qg-size=32 / no-rc-grain / qpmax=69 / qpmin=0 / no-const-vbv / sar=2 / overscan=0 / videoformat=5 / range=0 / colorprim=2 / transfer=2 / colormatrix=2 / chromaloc=0 / display-window=0 / max-cll=0,0 / min-luma=0 / max-luma=1023 / log2-max-poc-lsb=8 / vui-timing-info / vui-hrd-info / slices=1 / no-opt-qp-pps / no-opt-ref-list-length-pps / no-multi-pass-opt-rps / scenecut-bias=0.05 / no-opt-cu-delta-qp / no-aq-motion / no-hdr / no-hdr-opt / no-dhdr10-opt / analysis-reuse-level=5 / scale-factor=0 / refine-intra=0 / refine-inter=0 / refine-mv=0 / no-limit-sao / ctu-info=0 / no-lowpass-dct / refine-mv-type=0 / copy-pic=1
Language                                 : English
Default                                  : Yes
Forced                                   : No

Audio
ID                                       : 2
Format                                   : AAC
Format/Info                              : Advanced Audio Codec
Format profile                           : LC
Codec ID                                 : A_AAC
Duration                                 : 46 min 21 s
Bit rate                                 : 192 kb/s
Channel(s)                               : 6 channels
Channel positions                        : Front: L C R, Side: L R, LFE
Sampling rate                            : 48.0 kHz
Frame rate                               : 46.875 FPS (1024 spf)
Compression mode                         : Lossy
Delay relative to video                  : 20 ms
Stream size                              : 63.7 MiB (11%)
Language                                 : English
Default                                  : No
Forced                                   : No

Subtitle #1
ID                                       : 3
Format                                   : PGS
Muxing mode                              : zlib
Codec ID                                 : S_HDMV/PGS
Codec ID/Info                            : Picture based subtitle format used on BDs/HD-DVDs
Duration                                 : 45 min 22 s
Bit rate                                 : 86.9 kb/s
Count of elements                        : 1344
Stream size                              : 28.2 MiB (5%)
Title                                    : français
Language                                 : French
Default                                  : No
Forced                                   : No

Subtitle #2
ID                                       : 4
Format                                   : PGS
Muxing mode                              : zlib
Codec ID                                 : S_HDMV/PGS
Codec ID/Info                            : Picture based subtitle format used on BDs/HD-DVDs
Duration                                 : 45 min 22 s
Bit rate                                 : 87.3 kb/s
Count of elements                        : 1348
Stream size                              : 28.3 MiB (5%)
Title                                    : español
Language                                 : Spanish
Default                                  : No
Forced                                   : No

Subtitle #3
ID                                       : 9
Format                                   : PGS
Muxing mode                              : zlib
Codec ID                                 : S_HDMV/PGS
Codec ID/Info                            : Picture based subtitle format used on BDs/HD-DVDs
Duration                                 : 45 min 26 s
Bit rate                                 : 90.3 kb/s
Count of elements                        : 1454
Stream size                              : 29.3 MiB (5%)
Title                                    : English
Language                                 : English
Default                                  : No
Forced                                   : No

Menu
00:00:00.000                             : en:Chapter 1
00:02:01.121                             : en:Chapter 2
00:07:26.029                             : en:Chapter 3
00:10:54.863                             : en:Chapter 4
00:17:04.732                             : en:Chapter 5
00:20:41.740                             : en:Chapter 6
00:24:38.435                             : en:Chapter 7
00:28:41.720                             : en:Chapter 8
00:31:32.057                             : en:Chapter 9
00:35:45.602                             : en:Chapter 10
00:38:49.744                             : en:Chapter 11
00:41:46.754                             : en:Chapter 12

Source Information
24 S07 1080p BluRay REMUX AVC DTS-HD MA 5.1-EPSiLON (230.2 GB)



Note from QxR:
Whilst we are happy for our releases to be re-posted on a platform we aren't on, please do so in an 'as-is' format. We ask that you do not create a new torrent, include all descriptions you see above including the QxR logo, tags, notes and screenshots. If you'd like to become a permanent poster on a website we don't post to, feel free to get in contact with a QxR member.
Category:TV > TV Packs
Lang:English  English
Total Size:12.28 GB
Info Hash:045cce43107dbcd5a5a5c5e2df5bd78630d86d8e
Added By:QxR
Date Added:04-03-2018 02:06:28

Files

File List: 
 File Size
24 (2001) Season 7 S07 (1080p BluRay x265 HEVC 10bit AAC 5.1 ImE) [QxR]12.28 GB



Loading...
Comments

There are currently no comments. Be the first one to write something !

Disclaimer: None of the files shown here are actually hosted or transmitted by this server. The links are provided solely by this site's users. The site moderation is also a service provided by the site's users. The administrator of this site (ettv.tv) cannot be held responsible for what its users post, or any other actions of its users. You may not use this site to distribute or download any material when you do not have the legal rights to do so. It is your own responsibility to adhere to these terms.

SitemapTorrent kliens letöltése | 0 Warezkorb | Doctor Who (1963)